<?xml version="1.0" standalone="no"?>
<!DOCTYPE svg PUBLIC "-//W3C//DTD SVG 1.1//EN" "http://www.w3.org/Graphics/SVG/1.1/DTD/svg11.dtd" >
<svg xmlns="http://www.w3.org/2000/svg">
<metadata>Generated by IcoMoon</metadata>
<defs>
<font id="widgets" horiz-adv-x="1024">
<font-face units-per-em="1024" ascent="960" descent="-64" />
<missing-glyph horiz-adv-x="1024" />
<glyph unicode="&#x20;" horiz-adv-x="512" d="" />
<glyph unicode="&#xe800;" glyph-name="actionsheet" d="M85.333-85.333h768l85.333 85.333h-853.333zM85.333 85.334h768l85.333 85.333h-853.333zM85.333 938.667v-512h853.333v512zM853.333 512h-682.667v341.333h682.667zM85.333 256h768l85.333 85.333h-853.333z" />
<glyph unicode="&#xe801;" glyph-name="application" d="M85.333-85.333h170.667v85.333h-170.667zM682.667 938.667h-341.333v-85.333h341.333zM341.333-85.333h170.667v85.333h-170.667zM256 938.667h-170.667v-85.333h170.667zM85.333 85.334h512v-170.667h341.333v853.333h-853.333zM170.667 682.667h682.667v-682.667h-170.667v170.667h-512zM768 938.667v-85.333h170.667v85.333zM256 298.667h256l85.333 85.333h-341.333zM768 554.667h-512v-85.333h426.667z" />
<glyph unicode="&#xe802;" glyph-name="areacharts" d="M682.667 504.747l-170.667 170.667-298.667-298.667-213.333 213.333v-632.747h1024v888.747zM938.667 42.667h-853.333v341.333l128-128 298.667 298.667 170.667-170.667 256 256z" />
<glyph unicode="&#xe803;" glyph-name="autocomplete" d="M768 469.334h-512v-85.333h426.667zM512 938.667h-512v-170.667h512zM256 213.334h256l85.333 85.333h-341.333zM597.333 896v-85.333h341.333l85.333 85.333zM256 640v-85.333h426.667l85.333 85.333zM853.333 120.747l-120.747-120.747h-561.92v682.667h-85.333v-768h682.667l170.667 170.667v640h-85.333z" />
<glyph unicode="&#xe804;" glyph-name="barcharts" d="M938.667 853.334h-170.667v-682.667h170.667zM682.667 640h-170.667v-469.333h170.667zM170.667 554.667h-170.667v-384h170.667zM0 85.334v-85.333h938.667l85.333 85.333zM426.667 768h-170.667v-597.333h170.667z" />
<glyph unicode="&#xe805;" glyph-name="barcode" d="M426.667-0h85.333v853.333h-85.333zM0-0h85.333v853.333h-85.333zM213.333 256h85.333v597.333h-85.333zM597.333 256h85.333v597.333h-85.333zM938.667 853.334v-853.333h85.333v853.333zM768 256h85.333v597.333h-85.333z" />
<glyph unicode="&#xe806;" glyph-name="boxplotcharts" d="M896 256v85.333h-85.333v-85.333zM640 768l-85.333-85.333v-85.333h85.333zM682.667 554.667h-170.667v-128h170.667zM938.667 469.334h-170.667v-85.333h170.667zM640 213.334v170.667h-85.333v-170.667zM896 725.334l-85.333-85.333v-128h85.333zM0 85.334v-85.333h938.667l85.333 85.333zM128 853.334l-85.333-85.333v-170.667h85.333zM170.667 554.667h-170.667v-213.333h170.667zM128 170.667v128h-85.333v-128zM426.667 597.334h-170.667v-85.333h170.667zM384 810.667l-85.333-85.333v-85.333h85.333zM384 298.667v170.667h-85.333v-170.667z" />
<glyph unicode="&#xe807;" glyph-name="bubblecharts" d="M853.333 597.334c47.128 0 85.333 38.205 85.333 85.333s-38.205 85.333-85.333 85.333c-47.128 0-85.333-38.205-85.333-85.333v0c0-47.128 38.205-85.333 85.333-85.333v0zM640 213.334c94.257 0 170.667 76.41 170.667 170.667s-76.41 170.667-170.667 170.667c-94.257 0-170.667-76.41-170.667-170.667v0c0-94.257 76.41-170.667 170.667-170.667v0zM640 483.414c54.904 0 99.413-44.509 99.413-99.413s-44.509-99.413-99.413-99.413c-54.904 0-99.413 44.509-99.413 99.413v0c0 54.904 44.509 99.413 99.413 99.413v0zM341.333 469.334c70.692 0 128 57.308 128 128s-57.308 128-128 128c-70.692 0-128-57.308-128-128v0c0-70.692 57.308-128 128-128v0zM341.333 640c23.564 0 42.667-19.103 42.667-42.667s-19.103-42.667-42.667-42.667c-23.564 0-42.667 19.103-42.667 42.667v0c0 23.564 19.103 42.667 42.667 42.667v0zM192 298.667c35.346 0 64 28.654 64 64s-28.654 64-64 64c-35.346 0-64-28.654-64-64v0c0-35.346 28.654-64 64-64v0zM0 128v-85.333h938.667l85.333 85.333z" />
<glyph unicode="&#xe808;" glyph-name="bulletcharts" d="M640 768l-85.333-85.333v-341.333h85.333zM938.667 597.334h-256v-170.667h256zM0 170.667v-85.333h938.667l85.333 85.333zM512 597.334h-512v-170.667h512z" />
<glyph unicode="&#xe809;" glyph-name="button" d="M0 725.334v-597.333h1024v597.333zM938.667 213.334h-853.333v426.667h853.333zM810.667 469.334h-597.333v-85.333h512z" />
<glyph unicode="&#xe80a;" glyph-name="buttongroup" d="M0 640v-384h1024v384zM298.667 341.334h-213.333v213.333h213.333zM640 341.334h-256v213.333h256zM938.667 341.334h-213.333v213.333h213.333z" />
<glyph unicode="&#xe80b;" glyph-name="calendar" d="M597.333 896h-170.667v-85.333h170.667zM725.333 938.667h-85.333v-170.667h85.333zM384 938.667h-85.333v-170.667h85.333zM469.333 512h170.667v-85.333h-85.333l-85.333-85.333v-85.333l85.333-85.333h85.333l85.333 85.333h-170.667v85.333h85.333l85.333 85.333v85.333l-85.333 85.333h-85.333zM768 896v-85.333h170.667l85.333 85.333zM853.333 120.747l-120.747-120.747h-561.92v725.333h-85.333v-810.667h682.667l170.667 170.667v640h-85.333zM384 597.334l-85.333-85.333v-341.333h85.333zM256 896h-256v-85.333h256z" />
<glyph unicode="&#xe80c;" glyph-name="colorpicker" d="M469.333 213.334v-85.333c117.821 0 213.333 95.513 213.333 213.333v0h-85.333c0-70.692-57.308-128-128-128v0zM512 938.667s-384-341.333-384-640c0-212.077 171.923-384 384-384s384 171.923 384 384v0c0 298.667-384 640-384 640zM512-0c-164.949 0-298.667 133.718-298.667 298.667v0c0 256 298.667 524.373 298.667 524.373s298.667-268.373 298.667-524.373c0-164.949-133.718-298.667-298.667-298.667v0z" />
<glyph unicode="&#xe80d;" glyph-name="datasource" d="M682.667 725.334l-60.16 60.16-67.84-67.413v220.587l-85.333-85.333v-135.253l-67.84 67.413-60.16-60.16 170.667-170.667zM1024 384l-85.333 85.333h-135.253l67.413 67.84-60.16 60.16-170.667-170.667 170.667-170.667 60.16 60.16-67.413 67.84zM426.667 426.667c0-47.128 38.205-85.333 85.333-85.333s85.333 38.205 85.333 85.333c0 47.128-38.205 85.333-85.333 85.333v0c-47.128 0-85.333-38.205-85.333-85.333v0zM341.333 128l60.16-60.587 67.84 67.84v-220.587l85.333 85.333v135.253l67.84-67.84 60.16 60.587-170.667 170.667zM213.333 597.334l-60.16-60.16 67.413-67.84h-220.587l85.333-85.333h135.253l-67.413-67.84 60.16-60.16 170.667 170.667z" />
<glyph unicode="&#xe80e;" glyph-name="datepicker" d="M256 85.334h128v128h-128zM554.667 725.334h-128v-128h128zM384 554.667h-128v-128h128zM256 256h128v128h-128zM810.667 120.747l-120.747-120.747h-519.253v768h-85.333v-853.333h640l170.667 170.667v682.667h-85.333zM426.667 426.667h128v128h-128zM725.333 725.334h-128v-128h128zM426.667 256h128v128h-128zM0 938.667v-85.333h938.667l85.333 85.333zM597.333 256h128v128h-128zM597.333 426.667h128v128h-128zM426.667 85.334h128v128h-128z" />
<glyph unicode="&#xe80f;" glyph-name="diagram" d="M164.693 608.854l60.16-60.16 165.12 165.12-60.16 60.16zM554.667 682.667h-85.333v-512h85.333zM85.333 554.667c-47.128 0-85.333-38.205-85.333-85.333s38.205-85.333 85.333-85.333c47.128 0 85.333 38.205 85.333 85.333v0c0 47.128-38.205 85.333-85.333 85.333v0zM512 85.334c-47.128 0-85.333-38.205-85.333-85.333s38.205-85.333 85.333-85.333c47.128 0 85.333 38.205 85.333 85.333v0c0 47.128-38.205 85.333-85.333 85.333v0zM512 938.667c-47.128 0-85.333-38.205-85.333-85.333s38.205-85.333 85.333-85.333c47.128 0 85.333 38.205 85.333 85.333v0c0 47.128-38.205 85.333-85.333 85.333v0zM938.667 554.667c-47.128 0-85.333-38.205-85.333-85.333s38.205-85.333 85.333-85.333c47.128 0 85.333 38.205 85.333 85.333v0c0 47.128-38.205 85.333-85.333 85.333v0zM688.213 768l-60.587-60.16 165.547-165.547 60.16 60.587z" />
<glyph unicode="&#xe810;" glyph-name="donutcharts" d="M469.333 680.534v87.467c-155.2-20.625-276.43-143.019-295.092-297.030l-0.162-1.637h85.333c18.118 108.146 101.964 192.425 208.389 210.979l1.531 0.221zM938.667 469.334h85.333c-20.731 250.425-218.909 448.603-467.482 469.21l-1.852 0.124v-85.333c203.487-20.083 363.917-180.513 383.859-382.232l0.141-1.768zM512 170.667c-126.028 0.349-230.614 91.711-251.513 211.804l-0.22 1.529h-85.333c23.086-168.069 165.75-296.146 338.329-296.146 188.513 0 341.333 152.82 341.333 341.333 0 173.92-130.075 317.459-298.249 338.64l-1.68 0.173v-85.333c132.394-11.363 235.554-121.634 235.554-256 0-141.875-115.012-256.887-256.887-256.887-7.509 0-14.943 0.322-22.289 0.954l0.956-0.066zM512-0c-113.44 0.075-216.511 44.409-292.892 116.667l0.199-0.187-59.733-59.733c91.807-88.060 216.667-142.28 354.191-142.28 267.822 0 487.615 205.635 510.104 467.63l0.132 1.903h-85.333c-22.403-216.563-203.912-384.005-424.529-384.005-0.752 0-1.503 0.002-2.254 0.006h0.116zM85.333 426.667c-0.003 0.635-0.005 1.386-0.005 2.138 0 220.617 167.442 402.126 382.175 424.375l1.83 0.154v85.333c-263.785-22.744-469.286-242.481-469.286-510.215 0-116.063 38.618-223.106 103.706-308.981l-0.927 1.276 61.013 61.013c-48.769 68.125-78.121 153.050-78.506 244.812v0.095z" />
<glyph unicode="&#xe811;" glyph-name="draganddrop" d="M170.667 597.334h-85.333v-682.667h341.333v85.333h-256zM426.667 938.667v-682.667h341.333l170.667 170.667v512zM853.333 462.080l-120.747-120.747h-220.587v512h341.333zM341.333 768h-85.333v-682.667h341.333v85.333h-256z" />
<glyph unicode="&#xe812;" glyph-name="drawer" d="M42.667-85.333h170.667v1024h-170.667zM981.333 810.667h-682.667v-85.333h597.333zM298.667 42.667h597.333l85.333 85.333h-682.667zM298.667 384h597.333l85.333 85.333h-682.667zM298.667 554.667h597.333l85.333 85.333h-682.667zM298.667 213.334h597.333l85.333 85.333h-682.667z" />
<glyph unicode="&#xe813;" glyph-name="dropdownlist" d="M853.333 120.747l-120.747-120.747h-561.92v768h-85.333v-853.333h682.667l170.667 170.667v682.667h-85.333zM256 426.667h426.667l85.333 85.333h-512zM0 938.667v-85.333h938.667l85.333 85.333zM256 682.667v-85.333h426.667l85.333 85.333zM256 256h256l85.333 85.333h-341.333z" />
<glyph unicode="&#xe814;" glyph-name="editor" d="M170.667 256h170.667l85.333 85.333h-256zM768 120.747l-120.747-120.747h-561.92v853.333h682.667v-170.667l85.333 85.333v170.667h-853.333v-1024h682.667l170.667 170.667v298.667l-85.333-85.333zM597.333 512h-426.667v-85.333h341.333zM170.667 682.667v-85.333h341.333l85.333 85.333zM426.667 206.080v0l-120.747-120.747h120.747l597.333 597.333v120.747z" />
<glyph unicode="&#xe815;" glyph-name="effects" d="M486.827 537.174l170.667 170.667-60.16 60.16-110.507-110.507-110.080 110.507-60.587-60.16 110.507-110.507zM401.493 451.84l-170.667 170.667-60.16-60.587 110.507-110.080-110.507-110.507 60.16-60.16 110.507 110.080zM803.413 561.92l-60.587 60.587-170.667-170.667 170.667-170.667 60.587 60.16-110.507 110.507zM426.667 305.92l-110.507-110.080 60.587-60.587 110.080 110.507 110.507-110.507 60.16 60.587-170.667 170.667z" />
<glyph unicode="&#xe816;" glyph-name="funnelcharts" d="M0 896v-85.333l341.333-341.333v-512l85.333 85.333v462.080l-305.92 305.92h782.507l-305.92-305.92v-376.747l85.333 85.333v256l341.333 341.333v85.333h-1024z" />
<glyph unicode="&#xe817;" glyph-name="globalization" d="M512 938.667c-282.77 0-512-229.23-512-512s229.23-512 512-512c282.77 0 512 229.23 512 512v0c0 282.77-229.23 512-512 512v0zM309.333 802.134c-20.547-33.289-38.601-71.663-52.179-112.092l-1.154-3.961c-23.622 8.393-43.473 17.316-62.479 27.601l2.319-1.148c32.050 35.551 69.534 65.418 111.297 88.487l2.196 1.113zM146.773 646.827c24.288-15.297 52.373-29.622 81.753-41.4l3.58-1.267c-9.332-39.279-16.029-85.453-18.679-132.709l-0.095-2.118h-128c7.719 66.561 29.574 126.743 62.49 179.29l-1.050-1.797zM146.773 206.507c-31.142 50.863-52.289 111.106-59.145 175.617l-0.162 1.876h125.867c2.318-49.731 8.728-96.56 18.945-141.949l-1.025 5.416c-32.688-12.527-60.513-26.298-86.838-42.29l2.358 1.33zM195.84 140.8c16.418 8.943 36.248 17.993 56.719 25.738l3.441 1.142c14.624-44.529 32.688-83.056 54.71-118.888l-1.377 2.408c-43.959 24.182-81.443 54.049-113.156 89.22l-0.337 0.38zM469.333 8.534c-56.32 23.040-104.533 90.453-135.253 183.040 39.437 9.181 85.785 15.731 133.2 18.259l2.053 0.087zM469.333 295.254c-56.775-2.725-110.256-10.815-161.783-23.815l5.623 1.202c-6.986 32.179-12.157 70.352-14.412 109.307l-0.095 2.053h170.667zM469.333 469.334h-170.667c1.868 40.705 6.598 78.96 14.039 116.236l-0.812-4.876c46.329-11.886 100.263-19.982 155.641-22.547l1.799-0.066zM469.333 643.414c-49.468 2.616-95.816 9.166-140.761 19.402l5.508-1.055c30.72 92.587 78.933 160 135.253 183.040zM876.8 646.827c32.185-50.682 54.208-110.888 61.682-175.527l0.185-1.967h-128c-2.318 49.731-8.728 96.56-18.945 141.949l1.025-5.416c32.579 12.655 60.253 26.417 86.48 42.327l-2.426-1.367zM828.16 712.534c-16.418-8.943-36.248-17.993-56.719-25.738l-3.441-1.142c-14.624 44.529-32.688 83.056-54.71 118.888l1.377-2.408c43.959-24.182 81.443-54.049 113.156-89.22l0.337-0.38zM554.667 844.8c56.32-23.040 104.533-90.453 135.253-183.040-39.437-9.181-85.785-15.731-133.2-18.259l-2.053-0.087zM554.667 558.080c56.775 2.725 110.256 10.815 161.783 23.815l-5.623-1.202c6.986-32.179 12.157-70.352 14.412-109.307l0.095-2.053h-170.667zM554.667 8.534v201.387c49.468-2.616 95.816-9.166 140.761-19.402l-5.508 1.055c-30.72-92.587-78.933-160-135.253-183.040zM554.667 295.254v88.747h170.667c-1.868-40.705-6.598-78.96-14.039-116.236l0.812 4.876c-46.329 11.886-100.263 19.982-155.641 22.547l-1.799 0.066zM714.667 51.2c20.645 33.424 38.709 71.951 52.205 112.563l1.128 3.917c23.427-8.953 42.822-17.992 61.494-28.187l-2.614 1.307c-31.707-35.471-68.761-65.318-110.064-88.492l-2.15-1.108zM876.8 206.507c-24.344 15.443-52.437 29.774-81.871 41.455l-3.463 1.212c9.453 39.221 16.296 85.369 19.095 132.606l0.105 2.221h128c-7.659-66.605-29.681-126.811-62.893-179.227l1.026 1.733z" />
<glyph unicode="&#xe818;" glyph-name="grid" d="M0 938.667v-1024h853.333l170.667 170.667v853.333zM938.667 120.747l-120.747-120.747h-732.587v853.333h853.333zM256 85.334l85.333 85.333h128v-85.333l85.333 85.333h128v-85.333l170.667 170.667h-85.333v128l85.333 85.333h-85.333v128l85.333 85.333h-85.333v85.333h-85.333v-85.333h-128v85.333h-85.333v-85.333h-128v85.333h-85.333v-85.333h-85.333v-85.333h85.333v-128h-85.333v-85.333h85.333v-128h-85.333v-85.333h85.333zM554.667 597.334h128v-128h-128zM554.667 384h128v-128h-128zM341.333 597.334h128v-128h-128zM341.333 384h128v-128h-128z" />
<glyph unicode="&#xe819;" glyph-name="layout" d="M256 938.667h-170.667v-85.333h170.667zM85.333-85.333h170.667v85.333h-170.667zM768-85.333h170.667v85.333h-170.667zM682.667 938.667h-341.333v-85.333h341.333zM85.333 85.334h256v-170.667h341.333v170.667h256v682.667h-853.333zM170.667 682.667h682.667v-512h-256v-170.667h-170.667v170.667h-256zM768 938.667v-85.333h170.667v85.333zM597.333 384h-341.333v-85.333h256zM768 554.667h-512v-85.333h426.667z" />
<glyph unicode="&#xe81a;" glyph-name="lineargauge" d="M597.333 938.667h-170.667v-256h170.667zM426.667-85.333h170.667v597.333h-170.667zM256 640v-85.333h426.667l85.333 85.333z" />
<glyph unicode="&#xe81b;" glyph-name="linecharts" d="M92.587 387.84l-92.587-93.013v-120.32l153.173 152.747zM0-38.826h1024v85.333h-1024zM512 550.827l-170.667-170.667-341.333 341.333v-120.32l341.333-341.333 170.667 170.667 256-256 256 256v120.32l-256-256zM725.333 593.494l-213.333 213.333-238.507-238.080 60.587-60.587 177.92 178.347 213.333-213.333 298.667 298.667v120.32z" />
<glyph unicode="&#xe81c;" glyph-name="listview" d="M0-85.333h298.667l170.667 170.667v256h-469.333zM85.333 256h298.667v-135.253l-120.747-120.747h-177.92zM554.667 938.667v-426.667h298.667l170.667 170.667v256zM938.667 718.080l-120.747-120.747h-177.92v256h298.667zM0 512h298.667l170.667 170.667v256h-469.333zM85.333 853.334h298.667v-135.253l-120.747-120.747h-177.92zM554.667-85.333h298.667l170.667 170.667v256h-469.333zM640 256h298.667v-135.253l-120.747-120.747h-177.92z" />
<glyph unicode="&#xe81d;" glyph-name="map" d="M512 938.667c-212.077 0-384-171.923-384-384v0c0-298.667 384-640 384-640s384 341.333 384 640c0 212.077-171.923 384-384 384v0zM512 30.294s-298.667 268.373-298.667 524.373c0 164.949 133.718 298.667 298.667 298.667s298.667-133.718 298.667-298.667v0c0-256-298.667-524.373-298.667-524.373zM512 768c-117.821 0-213.333-95.513-213.333-213.333s95.513-213.333 213.333-213.333c117.821 0 213.333 95.513 213.333 213.333v0c0 117.821-95.513 213.333-213.333 213.333v0zM512 426.667c-70.692 0-128 57.308-128 128s57.308 128 128 128c70.692 0 128-57.308 128-128v0c0-70.692-57.308-128-128-128v0z" />
<glyph unicode="&#xe81e;" glyph-name="maskedtextbox" d="M469.333 359.254l60.587-60.587 67.413 67.84 67.413-67.84 60.587 60.587-67.84 67.413 67.84 67.84-60.16 60.16-67.84-67.84-67.84 67.84-60.16-60.16 67.84-67.84zM0 725.334v-597.333h1024v597.333zM938.667 213.334h-853.333v426.667h853.333zM170.667 359.254l60.587-60.587 67.413 67.84 67.84-67.84 60.16 60.587-67.413 67.413 67.413 67.84-60.16 60.16-67.84-67.84-67.84 67.84-60.16-60.16 67.84-67.84z" />
<glyph unicode="&#xe81f;" glyph-name="menu" d="M0 213.334h170.667v170.667h-170.667zM256 512h682.667l85.333 85.333h-768zM0 469.334h170.667v170.667h-170.667zM1024 853.334h-768v-85.333h682.667zM0-42.666h170.667v170.667h-170.667zM256 256h682.667l85.333 85.333h-768zM0 725.334h170.667v170.667h-170.667zM256-0h682.667l85.333 85.333h-768z" />
<glyph unicode="&#xe820;" glyph-name="modalview" d="M256 512v-85.333h426.667l85.333 85.333zM256 256h256l85.333 85.333h-341.333zM85.333-85.333h682.667l170.667 170.667v682.667h-853.333zM170.667 682.667h682.667v-561.92l-120.747-120.747h-561.92zM85.333 938.667v-85.333h853.333v85.333z" />
<glyph unicode="&#xe821;" glyph-name="multiselect" d="M341.333 938.667h-341.333v-85.333h341.333zM853.333 120.747l-120.747-120.747h-561.92v597.333h-85.333v-682.667h682.667l170.667 170.667v512h-85.333zM1024 938.667h-597.333v-85.333h512zM256 256h256l85.333 85.333h-341.333zM768 512h-512v-85.333h426.667zM0 682.667h938.667l85.333 85.333h-1024z" />
<glyph unicode="&#xe822;" glyph-name="mvvm" d="M545.707 810.667l69.12 69.547-60.16 58.453-170.667-170.667 170.667-170.667 60.16 60.16-64.853 65.28c147.555-19.725 260.174-144.799 260.174-296.176 0-94.874-44.237-179.416-113.209-234.125l-0.618-0.473 46.507-46.507 14.507-14.080c85.835 70.952 140.118 177.442 140.118 296.61 0 200.723-154.007 365.476-350.303 382.542l-1.442 0.101zM619.52 150.187l-107.52 105.813-60.16-60.16 66.987-67.84h-6.827c-164.743 0.273-298.187 133.886-298.187 298.666 0 105.559 54.762 198.328 137.427 251.447l1.187 0.714-28.587 29.013-32.853 32.427c-98.761-70.422-162.391-184.581-162.391-313.6 0-211.868 171.583-383.66 383.372-383.999h7.712l-67.84-68.267 60.16-59.733 170.667 170.667-60.16 60.16z" />
<glyph unicode="&#xe823;" glyph-name="navbar" d="M256 512v-85.333h426.667l85.333 85.333zM256 938.667h-170.667v-85.333h170.667zM682.667 938.667h-341.333v-85.333h341.333zM768 938.667v-85.333h170.667v85.333zM256 256h256l85.333 85.333h-341.333zM85.333-85.333h682.667l170.667 170.667v682.667h-853.333zM170.667 682.667h682.667v-561.92l-120.747-120.747h-561.92z" />
<glyph unicode="&#xe824;" glyph-name="notification" d="M725.333 682.667h-512v-85.333h426.667zM42.667 938.667v-768h554.667v-256h85.333l298.667 298.667v725.333zM896 248.747l-213.333-213.333v220.587h-554.667v597.333h768zM554.667 512h-341.333v-85.333h256z" />
<glyph unicode="&#xe825;" glyph-name="numerictextbox" d="M853.333 554.667h-85.333v-85.333h85.333zM853.333 384h-85.333v-85.333h85.333zM512 384h-341.333v-85.333h256zM0 725.334v-597.333h1024v597.333zM938.667 213.334h-853.333v426.667h853.333z" />
<glyph unicode="&#xe826;" glyph-name="panelbar" d="M42.667-85.333h853.333l85.333 85.333h-938.667zM42.667 85.334h853.333l85.333 85.333h-938.667zM981.333 938.667h-938.667v-85.333h853.333zM213.333 341.334h341.333l85.333 85.333h-426.667zM810.667 597.334h-597.333v-85.333h512zM42.667 256h85.333v426.667h768l85.333 85.333h-938.667z" />
<glyph unicode="&#xe827;" glyph-name="piecharts" d="M469.333 938.667c-263.409-23.15-468.465-242.701-468.465-510.146 0-126.657 45.99-242.572 122.182-331.958l-0.596 0.717 346.88 348.16zM384 480.854l-249.173-250.453c-30.405 57.2-48.259 125.070-48.259 197.109 0 189.478 123.511 350.109 294.415 405.774l3.018 0.85zM554.667 938.667v-469.333h469.333c-20.731 250.425-218.909 448.603-467.482 469.21l-1.852 0.124zM640 835.84c134.433-42.403 238.089-146.481 279.090-278.178l0.804-2.996h-279.893zM182.613 37.12c88.668-75.595 204.584-121.585 331.241-121.585 267.445 0 486.996 205.056 510.008 466.524l0.138 1.941h-493.227zM919.467 298.667c-56.515-173.921-217.146-297.432-406.624-297.432-72.040 0-139.91 17.854-199.426 49.378l2.317-1.119 250.453 249.173z" />
<glyph unicode="&#xe828;" glyph-name="polarcharts" d="M725.333 554.667l-426.667 384-298.667-725.333 512 128 42.667-426.667 384 298.667 85.333 512zM860.16 260.267l-235.947-183.467-26.88 273.067-9.813 98.133-96-23.893-347.733-85.333 187.733 455.68 336.64-303.36 46.080-42.667 53.76 32 142.933 81.493z" />
<glyph unicode="&#xe829;" glyph-name="popover" d="M256 213.334h256l85.333 85.333h-341.333zM725.333 725.334l-213.333 213.333-213.333-213.333h-213.333v-810.667h853.333v810.667zM853.333-0h-682.667v640h163.413l177.92 177.92 177.92-177.92h163.413zM256 384h426.667l85.333 85.333h-512z" />
<glyph unicode="&#xe82a;" glyph-name="progressbar" d="M1024 810.667h-170.667v-85.333h85.333zM170.667 512h-170.667v-170.667h170.667zM768 853.334h-768v-170.667h768zM0-0h512v170.667h-512zM597.333 42.667h341.333l85.333 85.333h-426.667zM256 384h682.667l85.333 85.333h-768z" />
<glyph unicode="&#xe82b;" glyph-name="qrcode" d="M512 768h85.333v170.667h-170.667v-85.333h85.333zM256 682.667h-85.333v-85.333h85.333zM426.667 768v85.333h-85.333v-85.333zM85.333 341.334h-85.333v-170.667h85.333zM768 426.667v85.333h-170.667v-85.333zM85.333 682.667h-85.333v-85.333h85.333zM170.667 853.334h170.667v85.333h-341.333v-170.667h170.667zM768 938.667h-85.333v-85.333h85.333zM512 597.334v-85.333h85.333v85.333zM170.667 341.334h85.333v85.333h-85.333zM426.667 256v85.333h-170.667v-85.333zM85.333 512v-85.333h85.333v85.333zM341.333 682.667v-170.667h-85.333v-85.333h170.667v170.667h85.333v85.333zM0-85.333h170.667v170.667h-170.667zM938.667 426.667h85.333v170.667h-85.333zM597.333 85.334v-85.333h85.333v85.333zM768 170.667h-85.333v-85.333h85.333zM938.667 170.667h-85.333v-85.333h170.667v256h-85.333zM768-0h85.333v85.333h-85.333zM768 768h-85.333v-170.667h170.667v85.333h-85.333zM256 170.667h-85.333v-85.333h85.333zM853.333 938.667v-256h85.333v85.333h85.333v170.667zM256-85.333h85.333v85.333h-85.333zM682.667-85.333h85.333v85.333h-85.333zM1024-85.333v85.333h-170.667v-85.333zM597.333 256h256v85.333h-341.333v-170.667h85.333zM512 85.334v85.333h-170.667v-170.667h85.333v85.333zM426.667-85.333h170.667v85.333h-170.667z" />
<glyph unicode="&#xe82c;" glyph-name="radarcharts" d="M1024 474.027h-352.853l251.733 145.067-42.667 73.813-251.733-145.067 78.080 134.827-73.813 42.667-78.080-134.827v348.16h-85.333v-348.16l-117.76 203.947-73.813-42.667 117.76-203.947-193.707 111.787-42.667-73.813 193.707-111.787h-352.853v-85.333h352.853l-258.56-149.333 42.667-73.813 258.56 148.907-111.36-192.853 73.813-42.667 111.36 192.853v-357.12h85.333v357.547l147.627-256 73.813 42.667-147.627 256 161.28-93.44 42.667 73.813-161.28 93.44h352.853zM512 346.027c-47.128 0-85.333 38.205-85.333 85.333s38.205 85.333 85.333 85.333c47.128 0 85.333-38.205 85.333-85.333v0c0-47.128-38.205-85.333-85.333-85.333v0z" />
<glyph unicode="&#xe82d;" glyph-name="radialgauge" d="M512 768c118.833-0.386 226.167-49.292 303.293-127.932l0.067-0.068 60.587 60.16c-93.717 99.927-226.575 162.182-373.973 162.182-282.914 0-512.262-229.347-512.262-512.262 0-135.516 52.622-258.741 138.546-350.358l-0.258 0.278 60.16 60.16c-65.68 74.668-105.761 173.245-105.761 281.183 0 235.641 191.025 426.667 426.667 426.667 1.032 0 2.062-0.004 3.092-0.011l-0.158 0.001zM922.453 456.534c10.281-34.764 16.197-74.705 16.197-116.028 0-106.913-39.601-204.577-104.934-279.124l0.417 0.485 61.867-61.867c79.905 89.498 128.739 208.225 128.739 338.358 0 66.631-12.803 130.271-36.082 188.596l1.21-3.434zM430.507 170.667h120.747l472.747 472.32v120.747z" />
<glyph unicode="&#xe82e;" glyph-name="scattercharts" d="M640 384c47.128 0 85.333 38.205 85.333 85.333s-38.205 85.333-85.333 85.333c-47.128 0-85.333-38.205-85.333-85.333v0c0-47.128 38.205-85.333 85.333-85.333v0zM853.333 640c47.128 0 85.333 38.205 85.333 85.333s-38.205 85.333-85.333 85.333c-47.128 0-85.333-38.205-85.333-85.333v0c0-47.128 38.205-85.333 85.333-85.333v0zM213.333 256c47.128 0 85.333 38.205 85.333 85.333s-38.205 85.333-85.333 85.333c-47.128 0-85.333-38.205-85.333-85.333v0c0-47.128 38.205-85.333 85.333-85.333v0zM0 128v-85.333h938.667l85.333 85.333zM384 512c47.128 0 85.333 38.205 85.333 85.333s-38.205 85.333-85.333 85.333c-47.128 0-85.333-38.205-85.333-85.333v0c0-47.128 38.205-85.333 85.333-85.333v0z" />
<glyph unicode="&#xe82f;" glyph-name="scheduler" d="M597.333 896h-170.667v-85.333h170.667zM725.333 938.667h-85.333v-170.667h85.333zM384 938.667h-85.333v-170.667h85.333zM853.333 120.747l-120.747-120.747h-561.92v725.333h-85.333v-810.667h682.667l170.667 170.667v640h-85.333zM256 896h-256v-85.333h256zM256 512h42.667v-85.333h-42.667v-85.333h42.667v-85.333h-42.667v-85.333h42.667v-85.333l85.333 85.333h85.333v-85.333l85.333 85.333h85.333v-85.333l170.667 170.667h-85.333v85.333l85.333 85.333h-85.333v85.333l85.333 85.333h-85.333v42.667h-85.333v-42.667h-85.333v42.667h-85.333v-42.667h-85.333v42.667h-85.333v-42.667h-42.667zM554.667 512h85.333v-85.333h-85.333zM554.667 341.334h85.333v-85.333h-85.333zM384 512h85.333v-85.333h-85.333zM384 341.334h85.333v-85.333h-85.333zM768 896v-85.333h170.667l85.333 85.333z" />
<glyph unicode="&#xe830;" glyph-name="scroller" d="M213.333 682.667v-85.333h341.333l85.333 85.333zM128-85.333h341.333l85.333 85.333h-426.667zM896 768v-426.667l85.333 85.333v341.333zM213.333 426.667h170.667l85.333 85.333h-256zM42.667 85.334h597.333l170.667 170.667v682.667h-768zM128 853.334h597.333v-561.92l-120.747-120.747h-476.587z" />
<glyph unicode="&#xe831;" glyph-name="scrollview" d="M298.667 42.667h85.333v85.333h-85.333zM640 42.667h85.333v85.333h-85.333zM469.333 42.667h85.333v85.333h-85.333zM0 810.667v-597.333h1024v597.333zM938.667 298.667h-853.333v426.667h853.333zM768 640h-512v-85.333h426.667zM597.333 469.334h-341.333v-85.333h256z" />
<glyph unicode="&#xe832;" glyph-name="singlepageapp" d="M768 512h-512v-85.333h426.667zM85.333 938.667v-1024h682.667l170.667 170.667v853.333zM853.333 120.747l-120.747-120.747h-561.92v853.333h682.667zM768 682.667h-512v-85.333h426.667zM597.333 341.334h-341.333v-85.333h256z" />
<glyph unicode="&#xe833;" glyph-name="slider" d="M768 853.334h-170.667v-170.667h170.667zM341.333 469.334h-341.333v-85.333h341.333zM512 810.667h-512v-85.333h512zM1024 810.667h-170.667v-85.333h85.333zM682.667 384h256l85.333 85.333h-341.333zM512 42.667h426.667l85.333 85.333h-512zM597.333 512h-170.667v-170.667h170.667zM256-0h170.667v170.667h-170.667zM0 42.667h170.667v85.333h-170.667z" />
<glyph unicode="&#xe834;" glyph-name="sortable" d="M213.333 725.334v-85.333h682.667l85.333 85.333zM213.333 128h170.667l85.333 85.333h-256zM42.667-85.333h85.333v1024h-85.333zM213.333 298.667h341.333l85.333 85.333h-426.667zM213.333 469.334h512l85.333 85.333h-597.333z" />
<glyph unicode="&#xe835;" glyph-name="sparklines" d="M0 213.334v-120.747l153.173 153.173-60.587 60.16zM725.333 512l-213.333 213.333-238.507-238.507 60.587-60.16 177.92 177.92 213.333-213.333 298.667 298.667v120.747zM512 469.334l-170.667-170.667-341.333 341.333v-120.747l341.333-341.333 170.667 170.667 256-256 256 256v120.747l-256-256z" />
<glyph unicode="&#xe836;" glyph-name="splitter" d="M469.333-85.333l85.333 85.333v938.667l-85.333-85.333zM384 128v120.747l-177.92 177.92 177.92 177.92v120.747l-298.667-298.667zM878.507 486.827l-238.507 238.507v-120.747l177.92-177.92-177.92-177.92v-120.747l298.667 298.667z" />
<glyph unicode="&#xe837;" glyph-name="splitview" d="M0 384h213.333l85.333 85.333h-298.667zM0 213.334h213.333l85.333 85.333h-298.667zM0 42.667h213.333l85.333 85.333h-298.667zM384 810.667v-768h640v768zM938.667 128h-469.333v597.333h469.333zM0 725.334h213.333l85.333 85.333h-298.667zM0 554.667h213.333l85.333 85.333h-298.667z" />
<glyph unicode="&#xe838;" glyph-name="stockchart" d="M682.667 554.667h-170.667v-128h170.667zM640 768l-85.333-85.333v-85.333h85.333zM938.667 469.334h-170.667v-85.333h170.667zM896 256v85.333h-85.333v-85.333zM896 725.334l-85.333-85.333v-128h85.333zM384 810.667l-85.333-85.333v-85.333h85.333zM640 213.334v170.667h-85.333v-170.667zM128 170.667v128h-85.333v-128zM0 85.334v-85.333h938.667l85.333 85.333zM170.667 554.667h-170.667v-213.333h170.667zM384 298.667v170.667h-85.333v-170.667zM426.667 597.334h-170.667v-85.333h170.667zM128 853.334l-85.333-85.333v-170.667h85.333z" />
<glyph unicode="&#xe839;" glyph-name="switch" d="M512 512h-341.333v-170.667h341.333zM0 682.667v-512h1024v512zM938.667 256h-853.333v341.333h853.333z" />
<glyph unicode="&#xe83a;" glyph-name="tabstrip" d="M682.667 938.667h-170.667v-85.333h170.667zM768 938.667v-85.333h170.667v85.333zM256 256h256l85.333 85.333h-341.333zM426.667 938.667h-341.333v-1024h682.667l170.667 170.667v682.667h-512zM853.333 682.667v-561.92l-120.747-120.747h-561.92v853.333h170.667v-170.667zM256 426.667h426.667l85.333 85.333h-512z" />
<glyph unicode="&#xe83b;" glyph-name="tabstrip-mobile" d="M85.333 938.667v-1024h341.333v170.667h512v853.333zM853.333 170.667h-512v-170.667h-170.667v853.333h682.667zM768-85.333h170.667v85.333h-170.667zM512-85.333h170.667v85.333h-170.667zM597.333 512h-341.333v-85.333h256zM768 682.667h-512v-85.333h426.667z" />
<glyph unicode="&#xe83c;" glyph-name="templates" d="M768 768h-512v-85.333h426.667zM597.333 597.334h-341.333v-85.333h256zM85.333 938.667v-1024h682.667l170.667 170.667v853.333zM853.333 120.747l-120.747-120.747h-561.92v853.333h682.667zM768 341.334h-512v-85.333h426.667zM597.333 170.667h-341.333v-85.333h256z" />
<glyph unicode="&#xe83d;" glyph-name="timepicker" d="M512 426.667v213.333l-85.333 85.333v-384h384l-85.333 85.333zM512 938.667c-282.77 0-512-229.23-512-512s229.23-512 512-512c282.77 0 512 229.23 512 512v0c0 282.77-229.23 512-512 512v0zM512-0c-235.641 0-426.667 191.025-426.667 426.667s191.025 426.667 426.667 426.667c235.641 0 426.667-191.025 426.667-426.667v0c0-235.641-191.025-426.667-426.667-426.667v0z" />
<glyph unicode="&#xe83e;" glyph-name="tooltip" d="M768 682.667h-512v-85.333h426.667zM85.333 938.667v-810.667h213.333l213.333-213.333 213.333 213.333h213.333v810.667zM853.333 213.334h-163.413l-177.92-178.347-177.92 178.347h-163.413v640h682.667zM597.333 512h-341.333v-85.333h256z" />
<glyph unicode="&#xe83f;" glyph-name="treeview" d="M256-42.666h170.667v170.667h-170.667zM0 725.334h170.667v170.667h-170.667zM1024 853.334h-768v-85.333h682.667zM682.667 384h-170.667v-170.667h170.667zM256 469.334h170.667v170.667h-170.667zM512 512h426.667l85.333 85.333h-512zM512-0h426.667l85.333 85.333h-512zM768 256h170.667l85.333 85.333h-256z" />
<glyph unicode="&#xe840;" glyph-name="upload" d="M597.333 938.667c-117.821 0-213.333-95.513-213.333-213.333v0-512c0-70.692 57.308-128 128-128s128 57.308 128 128v0 512l-85.333-85.333v-426.667c0-23.564-19.103-42.667-42.667-42.667s-42.667 19.103-42.667 42.667v0 512c0 70.692 57.308 128 128 128s128-57.308 128-128v0-512c0-117.821-95.513-213.333-213.333-213.333s-213.333 95.513-213.333 213.333v0 512l-85.333-85.333v-426.667c0-164.949 133.718-298.667 298.667-298.667s298.667 133.718 298.667 298.667v0 512c0 117.821-95.513 213.333-213.333 213.333v0z" />
<glyph unicode="&#xe841;" glyph-name="validator" d="M469.333 170.667h85.333v85.333h-85.333zM469.333 341.334l85.333 85.333v256h-85.333zM512 938.667c-282.77 0-512-229.23-512-512s229.23-512 512-512c282.77 0 512 229.23 512 512v0c0 282.77-229.23 512-512 512v0zM512-0c-235.641 0-426.667 191.025-426.667 426.667s191.025 426.667 426.667 426.667c235.641 0 426.667-191.025 426.667-426.667v0c0-235.641-191.025-426.667-426.667-426.667v0z" />
<glyph unicode="&#xe842;" glyph-name="window" d="M597.333 938.667h-512v-85.333h512zM768 938.667h-85.333v-85.333h85.333zM256 512v-85.333h426.667l85.333 85.333zM256 256h256l85.333 85.333h-341.333zM853.333 938.667v-85.333h85.333v85.333zM85.333-85.333h682.667l170.667 170.667v682.667h-853.333zM170.667 682.667h682.667v-561.92l-120.747-120.747h-561.92z" />
<glyph unicode="&#xe843;" glyph-name="gantt" d="M298.667 426.667h170.667l85.333-85.333 170.667 170.667h-426.667zM426.667 170.667h170.667l85.333-85.333 170.667 170.667h-426.667zM0 938.667v-1024h853.333l170.667 170.667v853.333zM938.667 120.747l-120.747-120.747h-732.587v853.333h853.333zM426.667 597.334l170.667 170.667h-426.667v-85.333h170.667z" />
<glyph unicode="&#xe844;" glyph-name="pivotgrid" d="M330.667-0l387.413 409.173-17.92 17.493-373.76 426.667h484.267l85.333 85.333h-768l85.333-85.333 388.267-443.307-388.267-410.027-85.333-85.333h768l-85.333 85.333h-480z" />
<glyph unicode="&#xe845;" glyph-name="treemap" d="M42.667 938.667v-1024h938.667v1024zM469.333-0h-341.333v426.667h341.333zM682.667-0h-128v170.667h128zM896-0h-128v170.667h128zM896 256h-341.333v170.667h341.333zM896 512h-768v341.333h768z" />
<glyph unicode="&#xe846;" glyph-name="rangebarcharts" d="M938.667 853.334h-170.667v-170.667h170.667zM426.667 597.334h-170.667v-298.667h170.667zM682.667 725.334h-170.667v-298.667h170.667zM170.667 341.334h-170.667v-170.667h170.667zM0 85.334v-85.333h938.667l85.333 85.333z" />
<glyph unicode="&#xe847;" glyph-name="waterfallcharts" d="M682.667 640h-170.667v-298.667h170.667zM426.667 853.334h-170.667v-213.333h170.667zM938.667 512h-170.667v-170.667h170.667zM170.667 853.334h-170.667v-682.667h170.667zM0 85.334v-85.333h938.667l85.333 85.333z" />
<glyph unicode="&#xe848;" glyph-name="combobox" d="M256 256h256l85.333 85.333h-341.333zM768 512h-512v-85.333h426.667zM256 682.667v-85.333h426.667l85.333 85.333zM682.667 938.667h-682.667v-85.333h682.667zM768 938.667v-85.333h170.667l85.333 85.333zM853.333 120.747l-120.747-120.747h-561.92v768h-85.333v-853.333h682.667l170.667 170.667v682.667h-85.333z" />
<glyph unicode="&#xe849;" glyph-name="responsivepanel" d="M1024 853.334h-1024v-170.667h853.333zM0 341.334h853.333l170.667 170.667h-1024zM0-0h853.333l170.667 170.667h-1024z" />
<glyph unicode="&#xe84a;" glyph-name="collapsible" d="M853.333 725.334h-597.333v-85.333h512zM853.333 554.667h-597.333v-85.333h512zM1024 938.667h-768v-85.333h682.667zM597.333 213.334h-341.333v-85.333h256zM0-85.333h938.667l85.333 85.333h-1024zM170.667 938.667h-170.667v-85.333h170.667zM853.333 384h-597.333v-85.333h512z" />
<glyph unicode="&#xe84b;" glyph-name="spreadsheet" d="M0 938.667v-1024h853.333l170.667 170.667v853.333zM938.667 120.747l-120.747-120.747h-732.587v853.333h853.333zM426.667 170.667v-85.333l85.333 85.333h170.667v-85.333l170.667 170.667h-85.333v85.333l85.333 85.333h-85.333v85.333l85.333 85.333h-85.333v85.333l85.333 85.333h-682.667v-682.667l85.333 85.333zM512 682.667h170.667v-85.333h-170.667zM512 512h170.667v-85.333h-170.667zM512 341.334h170.667v-85.333h-170.667zM256 682.667h170.667v-85.333h-170.667zM256 512h170.667v-85.333h-170.667zM256 341.334h170.667v-85.333h-170.667z" />
<glyph unicode="&#xe84c;" glyph-name="wordprocessing" d="M392.533 328.534l-72.533 349.867v4.267h-85.333v-4.267l-72.533-349.867-72.533 354.133h-89.6l106.667-512h106.667l64 298.667 64-298.667h106.667l106.667 512h-89.6zM1024 597.334h-426.667v-85.333h341.333zM597.333 341.334h341.333l85.333 85.333h-426.667zM597.333 170.667h341.333l85.333 85.333h-426.667z" />
<glyph unicode="&#xe84d;" glyph-name="spreadprocessing" d="M1024 469.334h-85.333v85.333l85.333 85.333h-85.333v85.333h-85.333v-85.333h-85.333v85.333h-85.333v-85.333h-85.333v-85.333h85.333v-85.333h-85.333v-85.333h85.333v-85.333h-85.333v-85.333h85.333v-85.333l85.333 85.333h85.333v-85.333l170.667 170.667h-85.333v85.333zM853.333 298.667h-85.333v85.333h85.333zM853.333 469.334h-85.333v85.333h85.333zM332.8 725.334l-119.467-183.467-115.2 183.467h-98.133l166.4-256-166.4-256h93.867l119.467 183.467 119.467-183.467h93.867l-166.4 256 166.4 256z" />
<glyph unicode="&#xe84e;" glyph-name="pdf" d="M85.333 733.867l119.467 119.467h563.2v-256h85.333v341.333h-682.667l-170.667-170.667v-853.333h853.333v85.333h-768zM469.333 85.334h170.667l85.333 85.333v256l-85.333 85.333h-170.667zM554.667 426.667h85.333v-256h-85.333zM170.667 85.334h85.333v128h85.333l85.333 85.333v128l-85.333 85.333h-170.667zM256 426.667h85.333v-128h-85.333zM853.333 426.667h85.333l85.333 85.333h-256v-426.667h85.333v170.667h42.667l85.333 85.333h-128z" />
<glyph unicode="&#xe84f;" glyph-name="datetimepicker" d="M256 85.334h128v128h-128zM384 554.667h-128v-128h128zM682.667 213.334h-42.667v-85.333h85.333v42.667h-42.667zM256 256h128v128h-128zM170.667-85.333h213.333v85.333h-213.333zM85.333-85.333h85.333v853.333h-85.333zM725.333 725.334h-128v-128h128zM896 768h-85.333v-341.333h85.333zM0 938.667v-85.333h938.667l85.333 85.333zM597.333 426.667h128v128h-128zM426.667 426.667h128v128h-128zM554.667 725.334h-128v-128h128zM661.333 384c-129.603 0-234.667-105.064-234.667-234.667s105.064-234.667 234.667-234.667c129.603 0 234.667 105.064 234.667 234.667v0c0 129.603-105.064 234.667-234.667 234.667v0zM661.333-0c-82.475 0-149.333 66.859-149.333 149.333s66.859 149.333 149.333 149.333c82.475 0 149.333-66.859 149.333-149.333v0c0-82.475-66.859-149.333-149.333-149.333v0z" />
<glyph unicode="&#xe850;" glyph-name="styling" d="M375.467 426.667h-119.467l256-256 426.667 435.2v119.467l-426.667-435.2zM85.333 938.667v-1024h682.667l170.667 170.667v384l-85.333-85.333v-264.533l-119.467-119.467h-563.2v853.333h682.667v-85.333l85.333 85.333v85.333z" />
<glyph unicode="&#xe851;" glyph-name="touchevents" d="M547.413 597.334l110.080 110.507-60.16 60.16-110.507-110.507-110.080 110.507-60.587-60.16 170.667-170.667zM401.493 451.84l-170.667 170.667-60.16-60.587 110.507-110.080-110.507-110.507 60.16-60.16 110.507 110.080zM426.667 305.92l-110.507-110.080 60.587-60.587 110.080 110.507 110.507-110.507 60.16 60.587-170.667 170.667zM803.413 561.92l-60.587 60.587-110.080-110.507-60.587-60.16 170.667-170.667 60.587 60.16-110.507 110.507z" />
<glyph unicode="&#xe852;" glyph-name="toolbar" d="M0 938.667v-1024h853.333l170.667 170.667v853.333zM938.667 120.747l-120.747-120.747h-732.587v512h853.333zM938.667 597.334h-853.333v256h853.333zM853.333 768h-170.667v-85.333h170.667zM341.333 768h-170.667v-85.333h170.667zM597.333 768h-170.667v-85.333h170.667z" />
<glyph unicode="&#xe853;" glyph-name="treelist" d="M597.333 512h-170.667v-170.667h170.667zM853.333 725.334h-426.667v-85.333h341.333zM682.667 128h85.333l85.333 85.333h-170.667zM682.667 384h85.333l85.333 85.333h-170.667zM0 938.667v-1024h853.333l170.667 170.667v853.333zM938.667 120.747l-120.747-120.747h-732.587v853.333h853.333zM341.333 768h-170.667v-170.667h170.667zM597.333 256h-170.667v-170.667h170.667z" />
<glyph unicode="&#xe854;" glyph-name="forms" d="M42.667 170.667h853.333l85.333 85.333h-938.667zM981.333 938.667h-938.667v-85.333h853.333zM42.667-85.333h426.667v170.667h-426.667zM554.667-85.333h426.667v170.667h-426.667zM42.667 682.667h853.333l85.333 85.333h-938.667zM42.667 341.334h853.333l85.333 85.333h-938.667zM42.667 512h853.333l85.333 85.333h-938.667z" />
<glyph unicode="&#xe855;" glyph-name="view" d="M768 512h-512v-85.333h426.667zM768 725.334h-256v-85.333h170.667zM426.667 768h-170.667v-170.667h170.667zM768 341.334h-512v-85.333h426.667zM85.333 938.667v-1024h682.667l170.667 170.667v853.333zM853.333 120.747l-120.747-120.747h-561.92v853.333h682.667zM597.333 170.667h-341.333v-85.333h256z" />
<glyph unicode="&#xe856;" glyph-name="listview-mobile" d="M0 213.334h170.667v170.667h-170.667zM1024 853.334h-768v-85.333h682.667zM0 469.334h170.667v170.667h-170.667zM0-42.666h170.667v170.667h-170.667zM256-0h682.667l85.333 85.333h-768zM256 512h682.667l85.333 85.333h-768zM0 725.334h170.667v170.667h-170.667zM256 256h682.667l85.333 85.333h-768z" />
<glyph unicode="&#xe857;" glyph-name="dialog" d="M768 938.667h-682.667v-85.333h682.667zM554.667 170.667v-85.333h128l85.333 85.333zM256 426.667v-85.333h256l85.333 85.333zM768 597.334h-512v-85.333h426.667zM853.333 938.667v-85.333h85.333v85.333zM85.333-85.333h682.667l170.667 170.667v682.667h-853.333zM170.667 682.667h682.667v-561.92l-120.747-120.747h-561.92zM256 85.334h128l85.333 85.333h-213.333z" />
<glyph unicode="&#xe858;" glyph-name="mediaplayer" d="M85.333-85.333h682.667l170.667 170.667v682.667h-853.333zM170.667 682.667h682.667v-563.2l-119.467-119.467h-563.2zM725.333 853.334l85.333 85.333h-128l-85.333-85.333zM384 938.667h-298.667v-85.333h213.333zM512 853.334l85.333 85.333h-128l-85.333-85.333zM896 938.667l-85.333-85.333h128v85.333zM426.667 128l213.333 213.333-213.333 213.333z" />
<glyph unicode="&#xe859;" glyph-name="localization" d="M725.333 725.334h-512v-85.333h426.667zM0 938.667v-682.667h170.667v-298.667l298.667 298.667h554.667v682.667zM938.667 341.334h-512l-170.667-170.667v170.667h-170.667v512h853.333zM554.667 554.667h-341.333v-85.333h256z" />
<glyph unicode="&#xe85a;" glyph-name="accessibility" d="M512 682.667c70.692 0 128 57.308 128 128s-57.308 128-128 128c-70.692 0-128-57.308-128-128v0c0-70.692 57.308-128 128-128v0zM128 597.334l85.333-85.333h170.667v-597.333h85.333v341.333h85.333v-341.333h85.333v597.333h170.667l85.333 85.333z" />
<glyph unicode="&#xe85b;" glyph-name="listbox" d="M725.333 384h-384v-85.333h298.667zM853.333 725.334h-512v-85.333h426.667zM256 725.334h-85.333v-85.333h85.333zM853.333 554.667h-512v-85.333h426.667zM0 938.667v-1024h853.333l170.667 170.667v853.333zM938.667 120.747l-120.747-120.747h-732.587v853.333h853.333zM256 384h-85.333v-85.333h85.333zM256 554.667h-85.333v-85.333h85.333z" />
<glyph unicode="&#xe85c;" glyph-name="dateinput" d="M597.333 366.507l128 128-60.16 60.16-67.84-67.413-60.16-60.587-67.84-67.413 60.587-60.587zM298.667 366.507l60.16 60.16 67.84 67.413-60.16 60.587-195.84-195.84 60.587-60.16zM0 725.334v-597.333h1024v597.333zM938.667 213.334h-853.333v426.667h853.333z" />
<glyph unicode="&#xe900;" glyph-name="ziplibrary" d="M384 512v85.333h-85.333v-85.333zM384 682.667v85.333h-85.333v-85.333zM384 341.334v85.333h-85.333v-85.333zM0 938.667v-1024h853.333l170.667 170.667v853.333zM938.667 120.747l-120.747-120.747h-732.587v853.333h128v-85.333h85.333v85.333h640zM213.333 85.334h170.667v170.667h-170.667zM213.333 426.667h85.333v85.333h-85.333zM213.333 597.334h85.333v85.333h-85.333z" />
<glyph unicode="&#xe901;" glyph-name="spreadstreamprocessing" d="M332.8 682.667l-119.467-183.467-115.2 183.467h-98.133l166.4-256-166.4-256h93.867l119.467 183.467 119.467-183.467h93.867l-166.4 256 166.4 256zM640 512v128l-213.333-213.333 213.333-213.333v128h384v170.667z" />
<glyph unicode="&#xe902;" glyph-name="rangeareacharts" d="M704 576l-192 192-285.867-281.6-226.133 226.133v-362.667l256-256 281.6 281.6 204.8-204.8 281.6 281.6v443.733zM938.667 486.4l-196.267-196.267-204.8 204.8-281.6-281.6-170.667 170.667v119.467l140.8-140.8 285.867 285.867 170.667-170.667 21.333-25.6 234.667 234.667zM0-42.666h938.667l85.333 85.333h-1024z" />
<glyph unicode="&#xe903;" glyph-name="dropdownbutton" d="M810.667 469.334h-85.333v-85.333h85.333zM0 725.334v-597.333h1024v597.333zM938.667 213.334h-853.333v426.667h853.333zM597.333 469.334h-384v-85.333h298.667z" />
<glyph unicode="&#xe904;" glyph-name="splitbutton" d="M512 469.334h-298.667v-85.333h213.333zM0 725.334v-597.333h1024v597.333zM640 213.334h-554.667v426.667h554.667zM938.667 213.334h-213.333v426.667h213.333z" />
<glyph unicode="&#xe905;" glyph-name="textbox" d="M0 725.334v-597.333h1024v597.333zM938.667 213.334h-853.333v426.667h853.333zM597.333 384h-426.667v-85.333h341.333z" />
<glyph unicode="&#xe906;" glyph-name="ripple" d="M512 512c-47.128 0-85.333-38.205-85.333-85.333s38.205-85.333 85.333-85.333c47.128 0 85.333 38.205 85.333 85.333v0c0 47.128-38.205 85.333-85.333 85.333v0zM512 725.334c-164.949 0-298.667-133.718-298.667-298.667s133.718-298.667 298.667-298.667v0 85.333c-117.821 0-213.333 95.513-213.333 213.333s95.513 213.333 213.333 213.333c117.821 0 213.333-95.513 213.333-213.333v0h85.333c0 164.949-133.718 298.667-298.667 298.667v0zM512 938.667c-282.77 0-512-229.23-512-512s229.23-512 512-512c282.77 0 512 229.23 512 512v0c0 282.77-229.23 512-512 512v0zM512-0c-235.641 0-426.667 191.025-426.667 426.667s191.025 426.667 426.667 426.667c235.641 0 426.667-191.025 426.667-426.667v0c0-235.641-191.025-426.667-426.667-426.667v0z" />
<glyph unicode="&#xe907;" glyph-name="chat" d="M341.333 213.334l-170.667-178.347v178.347h-85.333v426.667h85.333v85.333h-170.667v-597.333h85.333v-213.333h85.333l206.507 213.333h316.16l-85.333 85.333zM853.333 768h-426.667v-85.333h341.333zM682.667 597.334h-256v-85.333h170.667zM256 938.667v-640h390.827l206.507-213.333h85.333v213.333h85.333v640zM938.667 384h-85.333v-177.92l-170.667 177.92h-341.333v469.333h597.333z" />
<glyph unicode="&#xe908;" glyph-name="dropdowntree" d="M554.667 512v-42.667h170.667l42.667 42.667zM640 384h-128v-128h128zM682.667 341.334v-42.667h42.667l42.667 42.667zM853.333 120.747l-120.747-120.747h-561.92v768h-85.333v-853.333h682.667l170.667 170.667v682.667h-85.333zM768 170.667h-213.333v-42.667h170.667zM384 426.667h128v128h-128zM0 938.667v-85.333h938.667l85.333 85.333zM426.667 682.667v-42.667h298.667l42.667 42.667zM256 597.334h128v128h-128zM384 85.334h128v128h-128z" />
<glyph unicode="&#xe909;" glyph-name="daterangepicker" d="M426.667 725.334v-128h128v128zM256 554.667v-128h128v128zM426.667 426.667h298.667v42.667h-256v42.667h256v42.667h-298.667zM810.667 119.467l-119.467-119.467h-520.533v768h-85.333v-853.333h640l170.667 170.667v682.667h-85.333zM256 298.667v-42.667h298.667v128h-298.667v-42.667h256v-42.667zM725.333 725.334h-128v-128h128zM256 85.334h128v128h-128zM0 938.667v-85.333h938.667l85.333 85.333zM554.667 85.334v128h-128v-128zM725.333 256v128h-128v-128z" />
<glyph unicode="&#xe90a;" glyph-name="multiviewcalendar" d="M512 896h-170.667v-85.333h170.667zM640 938.667h-85.333v-170.667h85.333zM298.667 938.667h-85.333v-170.667h85.333zM384 554.667h170.667v-85.333h-85.333l-85.333-85.333v-85.333l85.333-85.333h85.333l85.333 85.333h-170.667v85.333h85.333l85.333 85.333v85.333l-85.333 85.333h-85.333zM810.667 163.414v561.92h-85.333v-526.507l-70.827-70.827h-526.507v597.333h-85.333v-682.667h647.253zM298.667 640l-85.333-85.333v-341.333h85.333zM682.667 896v-85.333h256l85.333 85.333zM853.333 128l-128-128h-640v-85.333h675.413l177.92 177.92v632.747h-85.333zM170.667 896h-170.667v-85.333h170.667z" />
<glyph unicode="&#xe90b;" glyph-name="multicolumncombobox" d="M768 938.667v-85.333h170.667l85.333 85.333zM853.333 163.414l-120.747-120.747h-561.92v725.333h-85.333v-810.667h682.667l170.667 170.667v640h-85.333zM682.667 938.667h-682.667v-85.333h682.667zM640 682.667v-42.667h-85.333v42.667h-85.333v-42.667h-85.333v42.667h-85.333v-42.667h-42.667v-85.333h42.667v-85.333h-42.667v-85.333h42.667v-85.333h-42.667v-85.333h42.667v-85.333l85.333 85.333h85.333v-85.333l85.333 85.333h85.333v-85.333l170.667 170.667h-85.333v85.333l85.333 85.333h-85.333v85.333l85.333 85.333h-85.333v42.667zM469.333 298.667h-85.333v85.333h85.333zM469.333 469.334h-85.333v85.333h85.333zM640 298.667h-85.333v85.333h85.333zM640 469.334h-85.333v85.333h85.333z" />
<glyph unicode="&#xe90c;" glyph-name="arcgauge" d="M256 384h119.467l-76.8-256h85.333l85.333 256v85.333h-213.333zM597.333 469.334l-85.333-85.333v-170.667l85.333-85.333h85.333l85.333 85.333v170.667l-85.333 85.333zM682.667 213.334h-85.333v170.667h85.333zM512 725.334c-282.77 0-512-229.23-512-512v0c0.442-30.471 3.217-59.954 8.158-88.696l-0.478 3.363 82.773 23.467c-3.063 18.462-4.917 39.865-5.119 61.664l-0.001 0.203c0 235.641 191.025 426.667 426.667 426.667 139.107 0 262.666-66.571 340.556-169.593l0.778-1.073 61.013 61.013c-94.599 119.213-239.477 194.987-402.053 194.987-0.103 0-0.207 0-0.31 0h0.016zM962.133 457.387l-64-63.573c25.578-52.059 40.537-113.309 40.537-178.054 0-22.85-1.863-45.265-5.446-67.101l0.323 2.381 82.773-23.040c4.484 25.396 7.26 54.88 7.676 84.934l0.004 0.399c0 0.023 0 0.051 0 0.078 0 89.412-22.919 173.471-63.203 246.622l1.336-2.647z" />
<glyph unicode="&#xe90d;" glyph-name="pdfviewer" d="M512 938.667h-512v-85.333h512zM682.667 938.667h-85.333v-85.333h85.333zM853.333 938.667h-85.333v-85.333h85.333zM170.667 128h85.333v128h85.333l85.333 85.333v128l-85.333 85.333h-170.667zM256 469.334h85.333v-128h-85.333zM853.333 469.334h85.333l85.333 85.333h-256v-426.667h85.333v170.667h42.667l85.333 85.333h-128zM469.333 128h170.667l85.333 85.333v256l-85.333 85.333h-170.667zM554.667 469.334h85.333v-256h-85.333zM647.68-0h-562.347v682.667h682.667v-48.213h85.333v133.547h-853.333v-853.333h682.667l128 128h-119.893z" />
<glyph unicode="&#xe90e;" glyph-name="rating" d="M1024 567.040l-353.707 51.2-158.293 320.427-158.293-320.427-353.707-51.2 256-249.6-60.587-352.427 316.587 166.4 316.587-166.4-60.587 352.427zM512 213.334v559.36l109.227-221.44 244.907-35.84-177.067-170.667 42.667-244.053z" />
<glyph unicode="&#xe90f;" glyph-name="filter" d="M0 896v-85.333l384-341.333v-512l256 256v256l384 341.333v85.333zM554.667 504.747v-256l-85.333-85.333v341.333l-349.013 305.92h775.68z" />
<glyph unicode="&#xe910;" glyph-name="timeline" d="M1024 810.667h-341.333v-85.333h256zM85.333 554.667h256v85.333h-341.333zM85.333 213.334h256v85.333h-341.333zM682.667 384h256l85.333 85.333h-341.333zM426.667-85.333h170.667v1024h-170.667zM682.667 42.667h256l85.333 85.333h-341.333z" />
<glyph unicode="&#xe911;" glyph-name="chunkprogressbar" d="M0 341.334h256v170.667h-256zM0-0h256v170.667h-256zM597.333 853.334h-256v-170.667h256zM1024 810.667h-341.333v-85.333h256zM0 682.667h256v170.667h-256zM341.333 384h597.333l85.333 85.333h-682.667zM682.667 42.667h256l85.333 85.333h-341.333zM341.333-0h256v170.667h-256z" />
<glyph unicode="&#xe912;" glyph-name="cards" d="M554.667 85.334h128l85.333 85.333h-213.333zM768 749.654l-170.667-170.667-85.333 85.333-149.333-146.773-106.667 105.387v-238.933h512zM469.333 170.667h-213.333v-85.333h128zM85.333 938.667v-1024h682.667l170.667 170.667v853.333zM853.333 120.747l-120.747-120.747h-561.92v853.333h682.667z" />
<glyph unicode="&#xe913;" glyph-name="animationcontainer" d="M320.427 426.667l-53.76-213.333h88.32l53.76 213.333h99.413l42.667-63.147-124.16-150.187h110.080l64.427 78.080 56.32-78.080h104.107l-102.4 146.347 125.44 152.32h-109.653l-66.56-80.64-53.76 80.64h-123.733l21.333 85.333h102.4l85.333 85.333h-256l-42.667-170.667h-85.333v-85.333zM85.333 938.667v-1024h682.667l170.667 170.667v853.333zM853.333 120.32l-120.32-120.32h-562.347v853.333h682.667z" />
<glyph unicode="&#xe914;" glyph-name="breadcrumbs" d="M549.12 384l42.667 42.667-42.667 42.667-37.12 36.267-78.507 78.507v-72.107l84.48-84.48-85.333-85.333v-73.387l79.36 78.933zM853.333 469.334h-213.333v-85.333h128zM384 469.334h-213.333v-85.333h128zM0 725.334v-597.333h1024v597.333zM938.667 213.334h-853.333v426.667h853.333z" />
<glyph unicode="&#xe915;" glyph-name="radiobutton" d="M512 640c-117.821 0-213.333-95.513-213.333-213.333s95.513-213.333 213.333-213.333c117.821 0 213.333 95.513 213.333 213.333v0c0 117.821-95.513 213.333-213.333 213.333v0zM512 938.667c-282.77 0-512-229.23-512-512s229.23-512 512-512c282.77 0 512 229.23 512 512v0c0 282.77-229.23 512-512 512v0zM512-0c-235.641 0-426.667 191.025-426.667 426.667s191.025 426.667 426.667 426.667c235.641 0 426.667-191.025 426.667-426.667v0c0-235.641-191.025-426.667-426.667-426.667v0z" />
<glyph unicode="&#xe916;" glyph-name="checkbox" d="M0 938.667v-1024h1024v1024zM938.667-0h-853.333v853.333h853.333zM853.333 605.867v119.467l-426.667-435.2-136.533 136.533h-119.467l256-256z" />
<glyph unicode="&#xe917;" glyph-name="badge" d="M725.333 170.667h-640v469.333h384v85.333h-469.333v-640h810.667v426.667h-85.333zM554.667 768v-170.667h298.667l170.667 170.667z" />
<glyph unicode="&#xe918;" glyph-name="filemanager" d="M597.333 256v-85.333h170.667l85.333 85.333zM853.333 597.334h-256v-85.333h170.667zM853.333 426.667h-256v-85.333h170.667zM810.667 938.667h-768v-85.333h768zM213.333 341.334h42.667l85.333 85.333h-128zM896 938.667v-85.333h85.333v85.333zM42.667-85.333h768l170.667 170.667v682.667h-938.667zM512 682.667h384v-562.347l-120.32-120.32h-263.68zM128 682.667h298.667v-682.667h-298.667zM213.333 512h42.667l85.333 85.333h-128zM213.333 170.667h42.667l85.333 85.333h-128z" />
<glyph unicode="&#xe919;" glyph-name="chip" d="M810.667 469.334h-597.333v-85.333h512zM0 640v-426.667h1024v426.667zM938.667 298.667h-853.333v256h853.333z" />
<glyph unicode="&#xe91a;" glyph-name="chiplist" d="M554.667 640v-426.667h469.333v426.667zM938.667 298.667h-298.667v256h298.667zM896 469.334h-170.667v-85.333h85.333zM170.667 384h85.333l85.333 85.333h-170.667zM0 213.334h469.333v426.667h-469.333zM85.333 554.667h298.667v-256h-298.667z" />
<glyph unicode="&#xe91b;" glyph-name="avatar" d="M512 640c-70.692 0-128-57.308-128-128s57.308-128 128-128c70.692 0 128 57.308 128 128v0c0 70.692-57.308 128-128 128v0zM512 938.667c-282.77 0-512-229.23-512-512s229.23-512 512-512c282.77 0 512 229.23 512 512v0c0 282.77-229.23 512-512 512v0zM786.773 100.267c-19.155 136.139-134.866 239.738-274.773 239.738s-255.619-103.6-274.604-238.27l-0.17-1.468c-93.149 78.782-151.893 195.736-151.893 326.411 0 235.641 191.025 426.667 426.667 426.667s426.667-191.025 426.667-426.667c0-130.674-58.744-247.628-151.265-325.893l-0.628-0.518z" />
<glyph unicode="&#xe91c;" glyph-name="floatinglabel" d="M896 551.68l85.333 85.333h-170.667v170.667h170.667l-85.333 85.333h-85.333l-85.333-85.333v-213.333l85.333-42.667zM0 512v-597.333h1024v597.333zM938.667-0h-853.333v426.667h853.333zM597.333 170.667h-426.667v-85.333h341.333zM128 637.014h85.333v-85.333h85.333v256l-85.333 85.333h-85.333l-85.333-85.333v-256h85.333zM128 807.68h85.333v-85.333h-85.333zM640 594.347v85.333l-42.667 42.667 42.667 42.667v85.333l-85.333 42.667h-170.667v-341.333h170.667zM469.333 845.227h85.333v-80.213h-85.333zM469.333 679.68h85.333v-85.333h-85.333z" />
<glyph unicode="&#xe91d;" glyph-name="fileselect" d="M597.333 768h-426.667v-85.333h341.333zM469.333 341.334l170.667-170.667 213.333 220.16v121.173l-213.333-221.867-51.2 51.2zM341.333 256h-170.667v-85.333h85.333zM0 938.667v-1024h853.333l170.667 170.667v853.333zM938.667 120.32l-120.32-120.32h-733.013v853.333h853.333zM469.333 512h-298.667v-85.333h213.333z" />
<glyph unicode="&#xe91e;" glyph-name="stepper" d="M87.893 429.227v0c-47.128 0-85.333 38.205-85.333 85.333v0 0c0 47.128 38.205 85.333 85.333 85.333v0 0c47.128 0 85.333-38.205 85.333-85.333v0 0c0-47.128-38.205-85.333-85.333-85.333v0zM514.56 599.894c-47.128 0-85.333-38.205-85.333-85.333s38.205-85.333 85.333-85.333c47.128 0 85.333 38.205 85.333 85.333v0 0c0 47.128-38.205 85.333-85.333 85.333v0zM514.56 471.894c-23.564 0-42.667 19.103-42.667 42.667s19.103 42.667 42.667 42.667v0c23.564 0 42.667-19.103 42.667-42.667v0 0c0-23.564-19.103-42.667-42.667-42.667v0zM1026.56 514.56v0c0 47.128-38.205 85.333-85.333 85.333v0 0c-47.128 0-85.333-38.205-85.333-85.333v0 0c0-47.128 38.205-85.333 85.333-85.333v0 0c47.128 0 85.333 38.205 85.333 85.333v0zM215.893 557.227h170.667l-85.333-85.333h-85.333zM642.56 557.227h170.667l-85.333-85.333h-85.333zM2.56 258.56h1024v85.333h-1024z" />
<glyph unicode="&#xe91f;" glyph-name="wizard" d="M85.333 768v0c-47.128 0-85.333 38.205-85.333 85.333v0 0c0 47.128 38.205 85.333 85.333 85.333v0 0c47.128 0 85.333-38.205 85.333-85.333v0 0c0-47.128-38.205-85.333-85.333-85.333v0zM512 938.667c-47.128 0-85.333-38.205-85.333-85.333s38.205-85.333 85.333-85.333c47.128 0 85.333 38.205 85.333 85.333v0c0 47.128-38.205 85.333-85.333 85.333v0zM512 810.667c-23.564 0-42.667 19.103-42.667 42.667s19.103 42.667 42.667 42.667c23.564 0 42.667-19.103 42.667-42.667v0c0-23.564-19.103-42.667-42.667-42.667v0zM1024 853.334v0c0 47.128-38.205 85.333-85.333 85.333v0 0c-47.128 0-85.333-38.205-85.333-85.333v0 0c0-47.128 38.205-85.333 85.333-85.333v0 0c47.128 0 85.333 38.205 85.333 85.333v0zM213.333 896h170.667l-85.333-85.333h-85.333zM640 896h170.667l-85.333-85.333h-85.333zM853.333-0h-853.333v-85.333h853.333zM0 597.334h1024v85.333h-1024zM85.333 682.667h-85.333v-768h85.333zM1024 682.667h-85.333v-597.333h85.333zM1024 85.334l-60.16 60.16-170.667-170.667 60.16-60.16zM170.667 256h682.667v85.333h-682.667zM170.667 426.667h682.667v85.333h-682.667zM597.333 170.667h-213.333v-85.333h128zM853.333 170.667h-213.333v-85.333h128z" />
<glyph unicode="&#xe920;" glyph-name="pager" d="M44.8 471.894l-44.8-45.227 170.667-170.667v80.213l-45.227 42.667-40.107 42.24-5.547 5.547 90.88 90.453v80.213l-85.333-85.333zM384 584.96v-53.333l85.333 32v-307.627h85.333v384h-8.96zM1024 426.667l-42.667 45.653-42.667 39.68-85.333 85.333v-80.213l45.227-42.667 45.653-45.653-90.88-92.16v-80.64l85.333 85.333 40.533 40.107 44.8 45.227z" />
<glyph unicode="&#xe921;" glyph-name="container" d="M0 768v-682.667h1024v682.667h-1024zM938.667 170.667h-853.333v512h853.333v-512z" />
<glyph unicode="&#xe922;" glyph-name="column" d="M170.667 938.667h-170.667v-1024h256v1024h-85.333zM85.333-0v853.333h85.333v-853.333h-85.333zM554.667 938.667h-170.667v-1024h256v1024h-85.333zM469.333-0v853.333h85.333v-853.333h-85.333zM1024 938.667h-256v-1024h256v1024zM853.333-0v853.333h85.333v-853.333h-85.333z" />
<glyph unicode="&#xe923;" glyph-name="row" d="M1024 768v170.667h-1024v-256h1024v85.333zM85.333 853.334h853.333v-85.333h-853.333v85.333zM1024 384v170.667h-1024v-256h1024v85.333zM85.333 469.334h853.333v-85.333h-853.333v85.333zM1024-85.333v256h-1024v-256h1024zM85.333 85.334h853.333v-85.333h-853.333v85.333z" />
<glyph unicode="&#xe924;" glyph-name="custom-html" d="M0 426.667l298.667 298.667v-128l-170.667-170.667 170.667-170.667v-128l-298.667 298.667zM725.333 725.334v-128l170.667-170.667-170.667-170.667v-128l298.667 298.667-298.667 298.667zM384-0h85.333l170.667 853.333h-85.333l-170.667-853.333z" />
<glyph unicode="&#xe925;" glyph-name="languages-dropdown" d="M768 405.334c0 153.173-124.16 277.333-277.333 277.333s-277.333-124.16-277.333-277.333 124.16-277.333 277.333-277.333c153.173 0 277.333 124.16 277.333 277.333zM512 178.774v109.227c23.893-1.28 46.933-3.84 68.267-8.533-15.36-50.773-39.68-87.893-68.267-100.693zM512 333.654v50.347h84.907c-0.853-21.333-2.987-41.813-6.4-61.013-24.747 5.973-51.2 9.387-78.507 10.667zM639.573 384h84.907c-3.413-36.693-14.933-70.4-33.28-100.267-17.493 10.667-37.973 20.053-60.16 27.733 4.267 23.040 7.253 47.36 8.533 72.533zM639.573 426.667c-0.853 25.173-3.84 49.493-8.533 72.533 22.187 7.68 42.24 17.067 60.16 27.733 17.92-29.867 29.867-63.573 33.28-100.267h-84.907zM596.907 426.667h-84.907v50.347c27.307 1.28 53.76 4.693 78.080 10.24 3.413-18.773 5.973-39.253 6.827-60.587zM512 522.667v109.227c28.587-12.373 52.907-49.493 68.267-100.693-21.333-4.693-44.373-7.253-68.267-8.533zM469.333 631.894v-108.373c-23.893 1.28-46.507 3.84-67.84 8.533 15.36 50.347 39.68 87.467 67.84 99.84zM469.333 477.014v-50.347h-84.907c0.853 21.333 2.987 41.813 6.4 61.013 24.747-5.973 51.2-9.387 78.507-10.667zM341.76 426.667h-84.48c3.413 36.693 14.933 70.4 33.28 100.267 17.493-11.093 37.973-20.053 60.16-27.733-4.693-23.040-7.68-47.36-8.96-72.533zM341.76 384c0.853-25.173 3.84-49.493 8.533-72.533-22.187-7.68-42.24-17.067-60.16-27.733-17.92 29.867-29.867 63.573-33.28 100.267h84.907zM384.427 384h84.907v-50.347c-27.307-1.28-53.76-4.693-78.080-10.24-3.413 18.773-5.973 39.253-6.827 60.587zM469.333 287.147v-108.373c-28.16 12.373-52.48 49.493-67.84 99.84 21.333 4.693 43.947 7.68 67.84 8.533zM584.96 190.72c14.080 21.76 26.027 48.213 35.413 78.080 16.64-5.547 31.573-12.373 44.373-20.053-21.76-24.747-49.067-44.8-79.787-58.027zM665.173 561.92c-13.227-7.253-28.16-14.080-44.8-20.053-8.96 29.867-20.907 56.32-35.413 78.080 30.72-13.227 58.027-33.28 80.213-58.027zM396.373 619.947c-14.080-21.333-26.027-47.787-34.987-77.227-16.64 5.973-31.573 12.373-44.373 20.053 21.76 24.32 48.64 43.947 79.36 57.173zM317.013 247.894c12.8 7.68 27.733 14.080 44.373 19.627 8.96-29.44 20.907-55.893 34.987-77.227-30.72 13.653-57.6 33.28-79.36 57.6zM810.667 768h85.333v-682.667l-170.667-170.667h-640v853.333h85.333v-768h519.253l120.747 120.747v647.253zM1024 938.667l-85.333-85.333h-938.667v85.333h1024z" />
<glyph unicode="&#xe926;" glyph-name="expander" d="M938.667 768h-597.333v85.333h682.667l-85.333-85.333zM170.667 298.667h597.333l85.333 85.333h-682.667v-85.333zM0 554.667v-640l85.333 85.333v469.333h853.333l85.333 85.333h-1024zM256 817.92v120.747l-128-128-128 128v-120.747l128-128 128 128zM170.667 128h426.667l85.333 85.333h-512v-85.333z" />
<glyph unicode="&#xe927;" glyph-name="image" d="M0 938.667v-1024h853.333l170.667 170.667v853.333h-1024zM938.667 120.747l-120.747-120.747h-732.587v853.333h853.333v-732.587zM213.333 618.667c0 58.88 47.787 106.667 106.667 106.667s106.667-47.787 106.667-106.667-47.787-106.667-106.667-106.667-106.667 47.787-106.667 106.667zM768 85.334h-597.333v170.667l128 128 128-128 213.333 213.333 213.333-213.333v-85.333l-85.333-85.333z" />
<glyph unicode="&#xe928;" glyph-name="label" d="M85.333 640l-85.333-85.333v-341.333h85.333v128h85.333v-128h85.333v341.333l-85.333 85.333h-85.333zM170.667 426.667h-85.333v128h85.333v-128zM384 640v-426.667h170.667l85.333 85.333v85.333l-42.667 42.667 42.667 42.667v85.333l-85.333 85.333h-170.667zM554.667 298.667h-85.333v85.333h85.333v-85.333zM554.667 469.334h-85.333v80.213h85.333v-80.213zM853.333 298.667h170.667l-85.333-85.333h-85.333l-85.333 85.333v256l85.333 85.333h85.333l85.333-85.333h-170.667v-256z" />
<glyph unicode="&#xe929;" glyph-name="searchbox" d="M735.573 283.307c47.36 64 75.093 142.933 75.093 228.693 0 212.053-171.093 384-383.147 384-212.907 0-384.853-171.947-384.853-384s171.947-379.307 384.427-379.307c95.573 0 183.040 30.72 250.453 88.32l261.12-263.68v120.747l-203.093 205.227zM427.093 213.334c-165.12 0-299.093 133.547-299.093 298.667s133.973 298.667 299.093 298.667c165.12 0 299.093-133.547 299.093-298.667s-133.973-298.667-299.093-298.667zM641.28 512h-85.333c0 70.827-57.173 128-128 128v85.333c117.76 0 213.333-95.573 213.333-213.333z" />
<glyph unicode="&#xe92a;" glyph-name="textarea" d="M0 938.667v-1024h1024v1024h-1024zM938.667-0h-853.333v853.333h853.333v-853.333zM768 170.667h85.333v-85.333h-85.333v85.333zM256 469.334h85.333v-128h85.333v341.333l-85.333 85.333h-85.333l-85.333-85.333v-341.333h85.333v128zM256 682.667h85.333v-128h-85.333v128zM768 426.667v85.333l-42.667 42.667 42.667 42.667v85.333l-85.333 85.333h-170.667v-426.667h170.667l85.333 85.333zM597.333 682.667h85.333v-85.333h-85.333v85.333zM597.333 512h85.333v-85.333h-85.333v85.333z" />
<glyph unicode="&#xe92b;" glyph-name="user-dropdown" d="M512 384l128-128v-128h-640v128l128 128h384zM320 469.334c82.347 0 149.333 66.987 149.333 149.333s-66.987 149.333-149.333 149.333-149.333-66.987-149.333-149.333 66.987-149.333 149.333-149.333zM896 384l-128 128v-120.747l128-128 128 128v120.747l-128-128z" />
<glyph unicode="&#xe92c;" glyph-name="tilelayout" d="M0-85.333h298.667l170.667 170.667v213.333h-469.333zM85.333 213.334h298.667v-92.587l-120.747-120.747h-177.92zM554.667 938.667v-384h298.667l170.667 170.667v213.333zM938.667 760.747l-120.747-120.747h-177.92v213.333h298.667zM0 384h298.667l170.667 170.667v384h-469.333zM85.333 853.334h298.667v-263.253l-120.747-120.747h-177.92zM554.667-85.333h298.667l170.667 170.667v384h-469.333zM640 384h298.667v-263.253l-120.747-120.747h-177.92z" />
<glyph unicode="&#xe92d;" glyph-name="radiogroup" d="M789.333 554.667c-58.91 0-106.667-47.756-106.667-106.667s47.756-106.667 106.667-106.667c58.91 0 106.667 47.756 106.667 106.667v0c0 58.91-47.756 106.667-106.667 106.667v0zM789.333 682.667c-129.603 0-234.667-105.064-234.667-234.667s105.064-234.667 234.667-234.667c129.603 0 234.667 105.064 234.667 234.667v0c0 129.603-105.064 234.667-234.667 234.667v0zM789.333 260.267c-103.682 0-187.733 84.051-187.733 187.733s84.051 187.733 187.733 187.733c103.682 0 187.733-84.051 187.733-187.733v0c0-103.682-84.051-187.733-187.733-187.733v0zM234.667 682.667c-129.603 0-234.667-105.064-234.667-234.667s105.064-234.667 234.667-234.667c129.603 0 234.667 105.064 234.667 234.667v0c0 129.603-105.064 234.667-234.667 234.667v0zM234.667 260.267c-103.682 0-187.733 84.051-187.733 187.733s84.051 187.733 187.733 187.733c103.682 0 187.733-84.051 187.733-187.733v0c0-103.682-84.051-187.733-187.733-187.733v0z" />
<glyph unicode="&#xe92e;" glyph-name="hint" d="M597.333 469.334h-426.667v-85.333h341.333zM0 42.667h469.333l85.333 85.333h-554.667zM0 810.667v-597.333h1024v597.333zM938.667 298.667h-853.333v426.667h853.333z" />
<glyph unicode="&#xe92f;" glyph-name="error" d="M0-0h469.333l85.333 85.333h-554.667zM853.333 853.334h-85.333v-341.333h85.333zM853.333 426.667h-85.333v-85.333h85.333zM512 341.334l85.333 85.333h-426.667v-85.333zM938.667 768v-512h-853.333v426.667h597.333v85.333h-682.667v-597.333h1024v597.333z" />
<glyph unicode="&#xe930;" glyph-name="rangeslider" d="M0 384h85.333v85.333h-85.333zM170.667 341.334h170.667v170.667h-170.667zM853.333 469.334v-85.333h85.333l85.333 85.333zM426.667 384h85.333v85.333h-85.333zM597.333 341.334h170.667v170.667h-170.667z" />
<glyph unicode="&#xe931;" glyph-name="imageeditor" d="M661.333 298.667c35.346 0 64 28.654 64 64s-28.654 64-64 64c-35.346 0-64-28.654-64-64v0c0-35.346 28.654-64 64-64v0zM640 213.334l-42.667-42.667-170.667 170.667-256-256h597.333zM853.333 768h-170.667v-85.333h170.667zM597.333 768h-170.667v-85.333h170.667zM0 938.667v-1024h853.333l170.667 170.667v853.333zM938.667 120.747l-120.747-120.747h-732.587v512h853.333zM938.667 597.334h-853.333v256h853.333zM341.333 768h-170.667v-85.333h170.667z" />
<glyph unicode="&#xe932;" glyph-name="chart" d="M256 554.667v-426.667h170.667v426.667zM170.667 341.334h-170.667v-213.333h170.667zM0-42.666h938.667l85.333 85.333h-1024zM896 849.067s0 4.267 0 4.267c0 23.564-19.103 42.667-42.667 42.667s-42.667-19.103-42.667-42.667v0c-0.115-1.024-0.18-2.211-0.18-3.413s0.065-2.389 0.193-3.558l-0.013 0.145-198.827-166.827c-4.284 1.749-9.247 2.832-14.444 2.985l-0.062 0.001c-8.675-0.127-16.658-2.988-23.152-7.758l0.112 0.078-190.293 96c-0.828 22.927-19.613 41.199-42.667 41.199-23.579 0-42.693-19.114-42.693-42.693 0-0.525 0.009-1.048 0.028-1.569l-0.002 0.075c-0.211-1.538-0.332-3.315-0.332-5.12s0.121-3.582 0.354-5.323l-0.022 0.203-203.093-205.227c-3.006 1.093-6.488 1.852-10.107 2.125l-0.133 0.008c-5.702-0.141-11.108-1.224-16.128-3.099l0.342 0.112-69.547 53.76v-54.187l42.667-34.133s0-5.12 0-5.12c0-23.564 19.103-42.667 42.667-42.667s42.667 19.103 42.667 42.667v0c0.211 1.538 0.332 3.315 0.332 5.12s-0.121 3.582-0.354 5.323l0.022-0.203 203.093 203.093c1.538-0.211 3.315-0.332 5.12-0.332s3.582 0.121 5.323 0.354l-0.203-0.022c8.464 0.247 16.256 2.922 22.762 7.349l-0.148-0.095 190.72-95.147c0.712-23.018 19.542-41.406 42.667-41.406 23.575 0 42.686 19.111 42.686 42.686 0 0.45-0.007 0.899-0.021 1.345l0.002-0.065c0.097 1.023 0.152 2.212 0.152 3.413s-0.055 2.391-0.163 3.564l0.011-0.151 200.107 166.827c3.887-1.607 8.39-2.676 13.101-2.98l0.126-0.007c0.097-0.001 0.211-0.001 0.326-0.001 6.091 0 11.85 1.418 16.966 3.942l-0.225-0.1 153.6-112.64v52.48zM768 640v-512h170.667v512zM512 426.667v-298.667h170.667v298.667z" />
<glyph unicode="&#xe933;" glyph-name="loader" d="M512 938.667c-282.77 0-512-229.23-512-512s229.23-512 512-512c282.77 0 512 229.23 512 512v0c0 282.77-229.23 512-512 512v0zM512-0c-235.641 0-426.667 191.025-426.667 426.667s191.025 426.667 426.667 426.667c235.641 0 426.667-191.025 426.667-426.667v0c0-235.641-191.025-426.667-426.667-426.667v0zM554.667 682.667l-85.333 85.333v-341.333l215.893-213.333h120.747l-251.307 251.307z" />
</font>
</defs>
</svg>
